#TITLE:Greek Girl At Wishing Lake;
#SUBTITLE:;
#ARTIST:Jolin Tsai;
#TITLETRANSLIT:Greek Girl At Wishing Lake;
#SUBTITLETRANSLIT:;
#ARTISTTRANSLIT:Thai Y Lam;
#CREDIT:;
#BANNER:Greekgirlatwishinglake-bn.png;
#BACKGROUND:;
#LYRICSPATH:;
#CDTITLE:cdtitle.png;
#MUSIC:Greek Girl at Wishing Lake.ogg;
#OFFSET:0.000;
#SAMPLESTART:67.840;
#SAMPLELENGTH:20.000;
#SELECTABLE:YES;
#BPMS:0.000=99.000;
#STOPS:;
#BGCHANGES:0.000=Greek Girl at Wishing Lake.avi=1.000=1=1=0,
99999=-nosongbg-=1.000=0=0=0 // don't automatically add -songbackground-
;
// cache tags:
#FIRSTBEAT:14.000;
#LASTBEAT:314.000;
#SONGFILENAME:Songs/Lon`/Greek Girl At Wishing Lake/Greek Girl at Wishing Lake.sm;
#HASMUSIC:1;
#HASBANNER:1;
#MUSICLENGTH:189.985;
// end cache tags

//---------------dance-single - ----------------
#NOTES:
     dance-single:
     :
     Hard:
     9:
     0.826,1.000,1.000,0.521,0.640,713.000,204.000,99.000,0.000,192.000:
0000
0000
0000
0000
,
0000
0000
0000
0000
,
0000
0000
0000
0000
,
0000
0000
0000
0000
0000
0000
0000
0000
1111
1111
0000
0000
0110
0000
0000
0000
,
0001
1000
0001
1000
0001
1000
0001
1000
,
0001
1000
0001
1000
0001
1000
0001
1000
,
0001
1000
0001
1000
0001
1000
0001
1000
,
0001
1000
0001
1000
0002
0000
0000
0000
,
1103
0000
0001
0010
0100
0000
0001
1000
0000
0100
0010
1000
0100
0010
0001
0000
,
0001
0000
0100
1000
0001
0000
0010
0100
0000
1000
0100
0001
1000
0001
1000
0000
,
0001
0000
0100
0010
0001
1000
0010
0000
1000
0100
0001
0000
1000
0000
0100
0000
,
1000
0000
0100
1000
1000
0010
0010
0001
0010
0100
0100
1000
0010
0100
1000
0010
,
0002
0020
0203
2030
,
0301
0010
3100
0000
2100
0010
0011
0000
,
3002
0020
0203
2030
,
0301
0000
0010
0000
3100
0000
0010
0001
0000
0001
0010
1000
0100
0001
0010
0100
,
2011
0001
0101
0001
0011
0001
0101
0001
0011
0001
0101
0001
0011
0001
0101
0001
,
3211
0001
1001
0001
0011
0001
1001
0001
0011
0001
1001
0001
0011
0001
1001
0001
,
1321
1000
1001
1000
1100
1000
1001
1000
1100
1000
1001
1000
1100
1000
1001
1000
,
2131
0001
0101
0001
0011
0001
0101
0001
0011
0001
0101
0001
0011
0001
0101
0001
,
3211
0001
1001
0001
0011
0001
1001
0001
0011
0001
1001
0001
0011
0001
1001
0001
,
1321
1000
1001
1000
1100
1000
1001
1000
1100
1000
1001
1000
1100
1000
1000
1000
,
1231
0001
1001
0001
0011
0001
1001
0001
0011
0001
1001
0001
0011
0001
1001
0001
,
2311
0001
0101
0001
0011
0001
0101
0001
0011
0001
0101
0001
0011
0001
0101
0001
,
3011
0000
0100
0010
0001
0000
0001
0010
0000
0100
1000
0100
0010
0000
0010
0000
,
0001
0000
0100
1000
0100
0000
1000
0100
0000
0001
0010
0100
0001
0010
0100
0000
,
0100
1000
0100
1000
0100
0100
1000
0000
1000
0100
1000
0000
0100
0000
1000
0000
,
0010
0000
0010
0100
1000
0000
1000
0100
0000
0001
0010
0100
0001
0010
0100
0000
,
2000
0200
3020
0302
,
1030
0100
0013
0000
0012
0100
1100
0000
,
2003
0200
3020
0302
,
1030
0000
0100
0000
0013
0000
0010
1000
0000
1000
0100
0000
0020
0000
0000
0000
,
0232
2000
0323
0002
,
3130
1000
0013
0000
1000
0001
1000
0000
,
2020
0002
3230
2000
,
0313
0000
0001
0000
3100
0000
1000
0001
0000
0001
1000
0001
0100
0000
0010
0000
,
0200
0000
0002
0000
1303
0010
1000
0100
,
0020
0000
0200
0000
1330
0001
1000
0001
,
2000
0000
0002
0000
3103
0001
1000
0002
,
0000
0000
0100
0000
0013
0000
1000
0001
0200
0000
0000
0000
0000
0000
0000
0000
,
0302
0000
2000
0000
3013
1000
0001
1000
,
0200
0000
0020
0000
1330
0001
1000
0010
,
0020
0000
2000
0000
3130
0001
0100
0020
,
0000
0000
1000
0000
0031
0000
1000
0001
0020
0000
0000
0000
0000
0000
0000
0000
,
1130
1000
1011
1000
1100
1000
1011
1000
1100
1000
1011
1000
1100
1000
1011
1000
,
1100
1000
1011
1000
1100
1000
1011
1000
1100
1000
1011
1000
1100
1000
1011
1000
,
1100
1000
1011
1000
1100
1000
1011
1000
1100
1000
1011
1000
1100
1000
1011
1000
,
1100
1000
1011
1000
1100
1000
1011
1000
1100
0000
0011
0000
1100
0000
0011
0000
,
1101
0001
0011
0001
1101
0001
0011
0001
1101
0001
0011
0001
1101
0001
0011
0001
,
1101
0001
0011
0001
1101
0001
0011
0001
1101
0001
0011
0001
1101
0001
0011
0001
,
1101
0001
0011
0001
1101
0001
0011
0001
1101
0001
0011
0001
1101
0001
0011
0001
,
1101
0001
0011
0001
1101
0001
0011
0001
2201
0001
0001
0001
0002
0000
0000
0000
,
3320
0000
0000
0000
0000
0000
0000
0000
1130
1100
0000
0000
1103
0000
0000
0000
,
0022
0200
2033
0020
,
3301
0100
1030
0000
1000
0100
0001
0000
,
2200
0020
3302
0200
,
1033
0000
0010
0000
0301
0000
0010
1000
0000
1000
0010
0001
0002
0000
0000
0000
,
0223
2000
0332
0020
,
3103
0001
0130
0000
0001
0100
0001
0000
,
2002
0200
3023
0002
,
1330
0000
0100
0000
0013
0000
0010
0100
0000
0100
0010
0000
0100
0000
1000
0000
,
0002
0023
0230
2300
,
3100
0010
0001
0000
0001
0010
1000
0000
,
2000
3200
0320
0032
,
1003
0000
0010
0000
0001
0000
0010
0100
0000
0100
0010
0000
0001
0000
0000
0000
,
0020
0230
0302
0023
,
1030
0100
0001
0000
0001
0100
1000
0000
,
0200
0320
2030
3200
,
0301
0000
0010
0000
0100
0000
1000
0010
0000
0010
1000
0000
0100
0000
0010
0000
,
0111
0001
1101
0001
0111
0001
1101
0001
0111
0001
1101
0001
0111
0001
1101
0001
,
0111
0001
1101
0001
0111
0001
1101
0001
0111
0001
1101
0001
0111
0010
1101
1000
,
1010
1000
1011
1000
1100
1000
1011
1000
1100
1000
1011
1000
1100
1000
1011
1000
,
1100
1000
1011
1000
1100
1000
1011
1000
2101
0000
0000
0000
0000
0000
0000
0000
,
3111
0001
1101
0001
0011
0001
1101
0001
0011
0001
1101
0001
0011
0001
1101
0001
,
0011
0001
1101
0001
0011
0001
1101
0001
0011
0001
1101
0001
0011
0001
1101
0001
,
0011
0001
1101
0001
0011
0001
1101
0001
0011
0001
1101
0001
0011
0001
1101
0001
,
0011
0001
1101
0001
0011
0001
1101
0001
0011
0001
1101
0001
0011
0001
1101
0001
,
2202
0000
0000
0000
,
0000
0000
3303
0000
;
